<?xml version="1.0" encoding="UTF-8" standalone="no"?>
<!DOCTYPE svg PUBLIC "-//W3C//DTD SVG 1.1//EN" "http://www.w3.org/Graphics/SVG/1.1/DTD/svg11.dtd">
<svg xmlns="http://www.w3.org/2000/svg">
<metadata/>
<defs>
<font id="effrabold" horiz-adv-x="1116">
<font-face units-per-em="2048" ascent="1638" descent="-410"/>
<missing-glyph horiz-adv-x="370"/>
<glyph unicode="ﬁ" horiz-adv-x="1198" d="M29 729v232h155v12q0 123 42 206t111 132t158 70.5t185 21.5q94 0 200.5 -25.5t190.5 -77.5l-110 -202q-55 29 -128 51t-145 22q-100 0 -155.5 -37.5t-55.5 -129.5v-43h602v-961h-293v729h-309v-729h-293v729h-155z"/>
<glyph unicode="ﬂ" horiz-adv-x="1200" d="M29 729v232h155v24q0 117 39 197t105.5 129t155.5 70.5t188 21.5q63 0 125.5 -9.5t117 -24.5t99.5 -34.5t76 -38.5v-1296h-293v1149q-25 10 -63 15t-72 5q-96 0 -140.5 -39.5t-44.5 -132.5v-36h205v-232h-205v-729h-293v729h-155z"/>
<glyph unicode="ﬃ" horiz-adv-x="1835" d="M29 729v232h155v32q0 111 33 189t87 127t124 71.5t141 22.5q63 0 130 -19.5t126 -66.5l-108 -193q-57 41 -117 41q-49 0 -87 -33.5t-38 -111.5v-59h346v12q0 119 41 201.5t108.5 133t155.5 73t183 22.5q100 0 207.5 -25.5t191.5 -77.5l-111 -202q-55 29 -127.5 51 t-144.5 22q-100 0 -155.5 -38.5t-55.5 -143.5v-28h602v-961h-293v729h-309v-729h-293v729h-342v-729h-295v729h-155z"/>
<glyph unicode="ﬄ" horiz-adv-x="1837" d="M29 729v232h155v49q0 102 34 176t88 122t123 71.5t140 23.5q63 0 130 -19.5t126 -66.5l-108 -193q-57 41 -117 41q-49 0 -87 -33.5t-38 -111.5v-59h346v24q0 117 39 197t105.5 129t155.5 70.5t188 21.5q63 0 125.5 -9.5t117 -24.5t99.5 -34.5t75 -38.5v-1296h-292v1149 q-25 10 -63 15t-73 5q-96 0 -140 -39.5t-44 -132.5v-36h205v-232h-205v-729h-293v729h-342v-729h-295v729h-155z"/>
<glyph unicode="&#xD;" horiz-adv-x="370"/>
<glyph horiz-adv-x="0"/>
<glyph horiz-adv-x="0"/>
<glyph unicode=" " horiz-adv-x="370"/>
<glyph unicode="&#9;" horiz-adv-x="370"/>
<glyph unicode=" " horiz-adv-x="370"/>
<glyph unicode="!" horiz-adv-x="598" d="M137 0v315h322v-315h-322zM137 1366h324l-12 -922h-299z"/>
<glyph unicode="&quot;" horiz-adv-x="864" d="M96 856v510h273v-510h-273zM493 856v510h273v-510h-273z"/>
<glyph unicode="#" horiz-adv-x="1492" d="M109 297v207h245l72 266h-190v207h245l84 311h232l-84 -311h254l84 311h231l-84 -311h184v-207h-239l-72 -266h184v-207h-239l-80 -297h-231l79 297h-254l-79 -297h-232l80 297h-190zM586 504h254l71 266h-254z"/>
<glyph unicode="$" d="M20 184l185 205q59 -63 152.5 -113.5t209.5 -50.5q33 0 66 6.5t59.5 21.5t43 40.5t16.5 62.5q0 63 -59.5 101.5t-200.5 72.5l-50 17q-174 49 -266 143t-92 242q0 158 101.5 257t279.5 122v182h197v-182q131 -16 213.5 -67.5t130.5 -96.5l-177 -197q-18 16 -44.5 36 t-60.5 37t-74 28.5t-85 11.5q-31 0 -65.5 -7t-63 -21.5t-47 -39t-18.5 -57.5q0 -66 61.5 -97.5t188.5 -64.5q76 -18 151.5 -49t136 -79t97 -117.5t36.5 -170.5q0 -80 -29.5 -144t-80.5 -112.5t-121 -80t-149 -43.5v-199h-197v190q-147 14 -260 74.5t-185 138.5z"/>
<glyph unicode="%" horiz-adv-x="1894" d="M98 954q0 174 87 271.5t243 97.5t242.5 -97.5t86.5 -271.5t-86.5 -273t-242.5 -99t-243 99t-87 273zM319 954q0 -86 28 -140t81 -54t80.5 54t27.5 140q0 84 -27.5 138.5t-80.5 54.5t-81 -54.5t-28 -138.5zM399 0l823 1290h256l-819 -1290h-260zM1133 358q0 174 87 271.5 t243 97.5t242.5 -97.5t86.5 -271.5t-86.5 -273t-242.5 -99t-243 99t-87 273zM1354 358q0 -86 28 -140t81 -54t80.5 54t27.5 140q0 84 -27.5 138.5t-80.5 54.5t-81 -54.5t-28 -138.5z"/>
<glyph unicode="&amp;" horiz-adv-x="1363" d="M57 365q0 121 63.5 230.5t205.5 195.5q-47 63 -68.5 129.5t-21.5 126.5q0 74 29.5 138t83.5 112.5t131 77t173 28.5q150 0 243 -69.5t140 -168.5l-209 -129q-33 70 -73.5 98.5t-87.5 28.5q-61 0 -99.5 -35.5t-38.5 -89.5q0 -41 21.5 -78.5t50.5 -72.5l320 -379l184 211 l199 -174l-211 -240l258 -305h-363l-96 113q-92 -76 -181 -111t-202 -35q-102 0 -185 30t-142.5 82t-91.5 124.5t-32 161.5zM346 389q0 -74 50 -119t136 -45q59 0 103.5 22.5t91.5 63.5l-250 293q-74 -53 -102.5 -104t-28.5 -111z"/>
<glyph unicode="'" horiz-adv-x="464" d="M96 856v510h273v-510h-273z"/>
<glyph unicode="(" horiz-adv-x="659" d="M115 627q0 154 22.5 287t54 238t64.5 181t53 113h295q-20 -37 -52 -117t-60.5 -189.5t-50 -240.5t-21.5 -272q0 -139 21.5 -271.5t50 -241t60.5 -188.5t52 -116h-295q-20 37 -53 111.5t-64.5 180t-54 238.5t-22.5 287z"/>
<glyph unicode=")" horiz-adv-x="659" d="M55 -190q20 37 52 116.5t61 188t50.5 240.5t21.5 272q0 141 -21.5 272t-50.5 240.5t-60.5 189.5t-52.5 117h295q20 -37 53 -113t65 -181t54.5 -238.5t22.5 -286.5q0 -154 -22.5 -287t-54.5 -238.5t-64.5 -180.5t-53.5 -111h-295z"/>
<glyph unicode="*" horiz-adv-x="1009" d="M100 958l222 103l-222 102l115 199l195 -135l-21 235h229l-16 -237l193 133l114 -199l-219 -96l219 -102l-114 -199l-195 135l18 -238h-229l23 234l-197 -133z"/>
<glyph unicode="+" d="M150 535v235h286v291h242v-291h289v-235h-289v-287h-242v287h-286z"/>
<glyph unicode="," horiz-adv-x="579" d="M119 -293l129 293h-117v328h338v-326l-172 -295h-178z"/>
<glyph unicode="-" horiz-adv-x="911" d="M131 432v281h649v-281h-649z"/>
<glyph unicode="." horiz-adv-x="583" d="M125 0v326h334v-326h-334z"/>
<glyph unicode="/" horiz-adv-x="917" d="M41 -33l545 1436h291l-539 -1436h-297z"/>
<glyph unicode="0" d="M49 653q0 150 32 275t96.5 213t159.5 137t222 49q129 0 225.5 -49t159 -137t93 -213t30.5 -275q0 -152 -30.5 -278.5t-94 -216.5t-159 -140.5t-226.5 -50.5q-127 0 -221 50.5t-158.5 140.5t-96.5 217t-32 278zM348 653q0 -88 11.5 -163.5t37 -132t65.5 -89t97 -32.5 q55 0 95 32.5t65.5 89t37 132t11.5 163.5q0 86 -12.5 160t-38 128t-65.5 85t-95 31t-95 -31t-65.5 -85t-37 -128t-11.5 -160z"/>
<glyph unicode="1" d="M113 1079l383 211h243v-1038h211v-252h-721v252h224v717l-215 -115z"/>
<glyph unicode="2" d="M63 1077q27 45 69 90t100.5 81t134 57.5t170.5 21.5q111 0 192.5 -31.5t136 -83t81 -117t26.5 -134.5q0 -92 -39 -166t-98.5 -135.5t-128 -113.5t-128 -99.5t-99.5 -92.5t-40 -92h539v-262h-879v174q0 102 42 184t105.5 149.5t138.5 124t138.5 106.5t105.5 98.5t42 99.5 q0 49 -39 92t-129 43q-45 0 -81 -14.5t-63.5 -36t-47 -47t-33.5 -45.5z"/>
<glyph unicode="3" d="M20 125l160 209q63 -55 130 -85t147 -30q94 0 156.5 51.5t62.5 143.5q0 72 -48 127t-153 55q-39 0 -72.5 -7t-52.5 -16l-76 121l330 338h-481v256h811v-211l-268 -303q154 -29 232.5 -129t78.5 -252q0 -102 -42 -182t-111.5 -134t-161 -83t-189.5 -29q-143 0 -257 43 t-196 117z"/>
<glyph unicode="4" d="M59 236v227l557 827h293v-823h131v-231h-131v-236h-274v236h-576zM324 467h311v477z"/>
<glyph unicode="5" d="M33 129l157 205q55 -51 119 -82t150 -31q57 0 99 17.5t68.5 46t39 65.5t12.5 76q0 31 -12.5 65.5t-39 63.5t-69.5 47.5t-104 18.5q-53 0 -98.5 -11.5t-86.5 -27.5l-135 100l113 606h696v-258h-493l-39 -207q14 6 52 11.5t77 5.5q94 0 174 -29t138 -83t90 -130t32 -170 q0 -92 -30 -176t-92.5 -147.5t-157.5 -101.5t-226 -38q-147 0 -251.5 46t-182.5 118z"/>
<glyph unicode="6" d="M88 610q0 152 38 283t113.5 227.5t185.5 151.5t255 55q111 0 189.5 -28.5t127.5 -53.5l-110 -227q-25 12 -81 33.5t-126 21.5q-55 0 -105.5 -21.5t-89.5 -61.5t-65.5 -95t-32.5 -123q45 29 106.5 52.5t139.5 23.5q94 0 171 -31t130 -86t81.5 -133t28.5 -172t-30.5 -178 t-90 -146.5t-144.5 -99.5t-195 -37q-104 0 -195.5 36t-158 115t-104.5 200.5t-38 293.5zM381 541q0 -92 17.5 -154.5t45 -99.5t64.5 -52.5t76 -15.5q86 0 136 58.5t50 150.5q0 86 -51 135t-129 49q-74 0 -124 -21t-85 -50z"/>
<glyph unicode="7" d="M104 1028v262h871v-248q-61 -104 -126 -235t-123 -270.5t-109.5 -278.5t-86.5 -258h-309q39 127 98.5 276.5t123 293t125 265t106.5 193.5h-570z"/>
<glyph unicode="8" d="M51 367q0 125 62.5 211t162.5 133q-61 37 -108 107.5t-47 162.5q0 74 30.5 137.5t88 109.5t138.5 72.5t179 26.5q102 0 184 -25.5t138.5 -71.5t86 -108.5t29.5 -136.5q0 -94 -49 -163.5t-110 -106.5q104 -47 165.5 -133t61.5 -211q0 -68 -29.5 -139.5t-91 -130 t-158 -96.5t-227.5 -38q-133 0 -228.5 36t-156.5 92.5t-91 128t-30 143.5zM346 377q0 -47 18.5 -80t48 -54.5t67.5 -31.5t77 -10q37 0 75 10t68.5 31.5t49 54.5t18.5 80q0 41 -18.5 74.5t-49 60.5t-68.5 44.5t-77 27.5q-41 -10 -78 -27.5t-66.5 -44.5t-47 -60.5t-17.5 -74.5 zM389 967q0 -55 48 -102t120 -70q72 23 119 69.5t47 106.5q0 66 -46 106.5t-120 40.5q-72 0 -120 -42t-48 -109z"/>
<glyph unicode="9" d="M74 864q0 94 30.5 178t89 147.5t143.5 100.5t195 37q104 0 195.5 -37t157 -116.5t103.5 -206.5t38 -305q0 -139 -32.5 -265.5t-101.5 -221.5t-177.5 -151.5t-259.5 -56.5q-111 0 -201 28t-137 54l112 230q12 -6 36 -16.5t54.5 -20t65.5 -16.5t70 -7q133 0 199.5 83 t76.5 210q-41 -27 -103.5 -50.5t-150.5 -23.5q-96 0 -171 35t-126 93.5t-78.5 135t-27.5 162.5zM348 866q0 -78 48 -132t128 -54q82 0 128 21.5t85 50.5q0 88 -15 149.5t-43 99t-63.5 54t-78.5 16.5q-86 0 -137.5 -56.5t-51.5 -148.5z"/>
<glyph unicode=":" horiz-adv-x="583" d="M125 0v326h334v-326h-334zM125 635v326h334v-326h-334z"/>
<glyph unicode=";" horiz-adv-x="593" d="M125 -293l129 293h-117v328h338v-326l-172 -295h-178zM139 635v326h334v-326h-334z"/>
<glyph unicode="&lt;" d="M137 563v174l727 389l107 -208l-508 -265l516 -264l-115 -215z"/>
<glyph unicode="=" d="M150 338v235h817v-235h-817zM150 713v235h817v-235h-817z"/>
<glyph unicode="&gt;" d="M154 389l516 264l-508 265l106 208l727 -389v-174l-727 -389z"/>
<glyph unicode="?" horiz-adv-x="1077" d="M63 1198q27 31 70 66.5t101.5 66.5t133 51.5t167.5 20.5q94 0 176 -25.5t141 -75t93 -120t34 -158.5q0 -59 -12.5 -104.5t-35 -82t-53 -67.5t-67.5 -57q-37 -29 -69.5 -53.5t-55 -51t-36 -59.5t-13.5 -78v-27h-281v27q0 111 38 195t124 147q31 23 59.5 44.5t52 44t38 48 t14.5 56.5q0 63 -51 95t-117 32q-47 0 -88 -12.5t-75 -32t-61.5 -41t-45.5 -39.5zM336 0v315h321v-315h-321z"/>
<glyph unicode="@" horiz-adv-x="1966" d="M80 555q0 215 76.5 375t203.5 265t293 157.5t344 52.5q211 0 377 -56.5t278.5 -162t172 -257t59.5 -339.5q0 -178 -43 -297t-108.5 -190.5t-144.5 -102.5t-152 -31q-92 0 -149.5 28t-98.5 91q-63 -61 -136 -91t-188 -30q-51 0 -107.5 15.5t-104.5 51.5t-79.5 93 t-31.5 141t32.5 148.5t91 107.5t139.5 64.5t175 21.5q47 0 95 -2t65 -6v37q0 66 -52.5 96.5t-119.5 30.5q-102 0 -166 -24.5t-109 -55.5l-123 180q31 25 71 47.5t92 40t119 28.5t155 11q190 0 300.5 -96t110.5 -270v-340q0 -100 72 -101q29 0 59.5 25t55 76t40 126.5 t15.5 180.5q0 162 -53.5 277.5t-144.5 189.5t-212 107.5t-256 33.5q-117 0 -237.5 -33.5t-220 -109.5t-162 -198t-62.5 -298q0 -94 19.5 -172t46 -138t54.5 -99t46 -58l-166 -133q-33 27 -72.5 80t-75.5 130t-59.5 174t-23.5 208zM821 299q0 -57 37 -88t105 -31q70 0 123 43 t53 123v80q-4 -2 -32 2t-65 4q-117 0 -169 -35t-52 -98z"/>
<glyph unicode="A" horiz-adv-x="1382" d="M14 0l510 1366h342l500 -1366h-338l-104 313h-482l-104 -313h-324zM514 553h336l-166 516z"/>
<glyph unicode="B" horiz-adv-x="1257" d="M133 0v1366h512q127 0 215 -29.5t143.5 -79t80 -114t24.5 -133.5q0 -66 -23.5 -116t-55.5 -86t-67.5 -56.5t-60.5 -26.5q37 -8 85 -29.5t91 -61.5t73 -100.5t30 -142.5q0 -106 -38 -180t-106.5 -121t-168 -68.5t-222.5 -21.5h-512zM434 238h201q33 0 74 5t75.5 23.5 t58 53t23.5 96.5q0 55 -22.5 90t-57 54.5t-75.5 26.5t-76 7h-201v-356zM434 819h182q35 0 69 8.5t59.5 25.5t42 47t16.5 73q0 45 -16.5 74.5t-43 47t-60.5 24.5t-67 7h-182v-307z"/>
<glyph unicode="C" horiz-adv-x="1394" d="M80 678q0 152 51 284t144.5 229t223.5 153.5t287 56.5q190 0 333 -69.5t237 -201.5l-211 -202q-61 86 -145.5 138t-200.5 52q-92 0 -166 -33.5t-125 -93t-79 -138.5t-28 -167q0 -90 28 -168t79 -135t122.5 -90t162.5 -33q74 0 128 15.5t96 41t74.5 59.5t63.5 68l211 -192 q-43 -59 -104.5 -111.5t-136 -91.5t-161.5 -61.5t-182 -22.5q-156 0 -284.5 53.5t-222 148.5t-144.5 225t-51 286z"/>
<glyph unicode="D" horiz-adv-x="1468" d="M133 0v1366h516q158 0 292 -41t231.5 -125t151.5 -215t54 -309q0 -170 -55 -296t-152.5 -211t-231.5 -127t-292 -42h-514zM442 274h189q205 0 315.5 107.5t110.5 296.5q0 94 -25.5 171t-78 131t-132.5 84t-190 30h-189v-820z"/>
<glyph unicode="E" horiz-adv-x="1187" d="M133 0v1366h934v-270h-625v-267h486v-262h-486v-295h670v-272h-979z"/>
<glyph unicode="F" horiz-adv-x="1103" d="M133 0v1366h918v-272h-609v-310h463v-264h-463v-520h-309z"/>
<glyph unicode="G" horiz-adv-x="1480" d="M80 680q0 154 51 285t145.5 228t223.5 152.5t286 55.5q186 0 326.5 -68.5t233.5 -191.5l-209 -199q-66 78 -145 127t-193 49q-94 0 -168 -34.5t-125 -94t-78 -139.5t-27 -170q0 -98 31 -178t86 -136.5t130 -87t163 -30.5q82 0 149.5 19.5t120.5 62.5v172h-241v250h526 v-592q-106 -92 -248.5 -142.5t-324.5 -50.5q-168 0 -300.5 52.5t-224.5 146.5t-140 225t-48 289z"/>
<glyph unicode="H" horiz-adv-x="1476" d="M133 0v1366h309v-524h592v524h309v-1366h-309v561h-592v-561h-309z"/>
<glyph unicode="I" horiz-adv-x="575" d="M133 0v1366h309v-1366h-309z"/>
<glyph unicode="J" horiz-adv-x="1073" d="M20 166l201 190q55 -66 111.5 -93t122.5 -27q86 0 136 51t50 149v930h309v-950q0 -117 -39 -203t-104.5 -141.5t-150.5 -82t-179 -26.5q-297 0 -457 203z"/>
<glyph unicode="K" horiz-adv-x="1339" d="M133 0v1366h309v-545l457 545h358l-469 -532l533 -834h-375l-364 596l-140 -156v-440h-309z"/>
<glyph unicode="L" horiz-adv-x="1144" d="M133 0v1366h309v-1092h654v-274h-963z"/>
<glyph unicode="M" horiz-adv-x="1640" d="M111 0l63 1366h293l356 -641l348 641h295l64 -1366h-309l-39 893l-283 -533h-160l-299 527l-34 -887h-295z"/>
<glyph unicode="N" horiz-adv-x="1458" d="M133 0v1366h295l592 -887v887h305v-1366h-281l-606 903v-903h-305z"/>
<glyph unicode="O" horiz-adv-x="1581" d="M80 684q0 154 54 285t149.5 227t225.5 151.5t282 55.5t281.5 -55.5t225 -151.5t149.5 -227t54 -285q0 -152 -54 -284t-149.5 -228t-225 -151.5t-281.5 -55.5t-282 55.5t-225.5 151.5t-149.5 228t-54 284zM401 688q0 -88 27 -166t77 -137t123 -94t163 -35t161.5 35 t121.5 94t77 137t27 166t-27 166t-77 136.5t-121.5 92t-161.5 33.5t-163 -33.5t-123 -92t-77 -136.5t-27 -166z"/>
<glyph unicode="P" horiz-adv-x="1183" d="M133 0v1366h498q127 0 217 -37t148.5 -97.5t86 -140t27.5 -165.5q0 -111 -38 -194t-102.5 -138t-148.5 -84t-176 -29h-211v-481h-301zM434 731h180q86 0 136.5 52.5t50.5 136.5q0 86 -51.5 140t-137.5 54h-178v-383z"/>
<glyph unicode="Q" horiz-adv-x="1581" d="M80 684q0 154 54 285t149.5 227t225.5 151.5t282 55.5t281.5 -55.5t225 -151.5t149.5 -227t54 -285q0 -156 -56 -289t-157 -231l144 -178l-168 -140l-154 191q-72 -35 -152.5 -53.5t-166.5 -18.5q-152 0 -282 55.5t-225.5 151.5t-149.5 228t-54 284zM401 688 q0 -88 27 -166t77 -137t122.5 -94t163.5 -35q35 0 65.5 5t58.5 15l-147 187l166 139l156 -196q43 57 65.5 129.5t22.5 152.5q0 88 -27 166t-77 136.5t-121.5 92t-161.5 33.5t-163 -33.5t-123 -92t-77 -136.5t-27 -166z"/>
<glyph unicode="R" horiz-adv-x="1243" d="M133 0v1366h508q119 0 209 -34t150.5 -92t90 -136t29.5 -166q0 -133 -58 -232.5t-165 -158.5l303 -547h-340l-254 502h-172v-502h-301zM434 750h191q86 0 135 51t49 129q0 84 -49 133t-135 49h-191v-362z"/>
<glyph unicode="S" horiz-adv-x="1210" d="M37 193l199 215q27 -29 62.5 -59t79.5 -54.5t96 -39.5t112 -15q35 0 69.5 10t63.5 29.5t46 47t17 62.5q0 76 -73.5 118t-233.5 83q-78 18 -144.5 53t-114.5 84t-74.5 112.5t-26.5 141.5q0 86 30.5 162t93 134t155.5 92t220 34q104 0 184.5 -21.5t136.5 -51.5t92 -61.5 t54 -49.5l-178 -197q-23 18 -52.5 39.5t-66 40t-81 31t-93.5 12.5q-33 0 -64.5 -10.5t-57 -27.5t-41 -41t-15.5 -50q0 -70 74 -113t203 -72q76 -18 148.5 -49.5t129.5 -83t92 -126t35 -181.5q0 -92 -41 -170t-111.5 -135t-166 -89t-205.5 -32q-102 0 -186.5 19.5t-152 51.5 t-121.5 73t-93 84z"/>
<glyph unicode="T" horiz-adv-x="1280" d="M43 1094v272h1194v-272h-440v-1094h-312v1094h-442z"/>
<glyph unicode="U" horiz-adv-x="1392" d="M123 518v848h311v-809q0 -68 13.5 -122t44 -93t81 -60.5t123.5 -21.5q72 0 122 21.5t81 60.5t44 93t13 122v809h314v-848q0 -123 -40 -225.5t-115 -175t-181.5 -113.5t-237.5 -41t-237.5 40t-181 113.5t-114.5 176t-40 225.5z"/>
<glyph unicode="V" horiz-adv-x="1359" d="M14 1366h342l334 -997l326 997h327l-501 -1366h-326z"/>
<glyph unicode="W" horiz-adv-x="1853" d="M20 1366h332l201 -989l240 952h280l242 -952l198 989h320l-348 -1366h-326l-233 893l-238 -893h-326z"/>
<glyph unicode="X" horiz-adv-x="1312" d="M4 0l461 702l-451 664h379l256 -401l246 401h342l-422 -643l492 -723h-381l-295 459l-287 -459h-340z"/>
<glyph unicode="Y" horiz-adv-x="1302" d="M14 1366h351l297 -516l288 516h336l-479 -793v-573h-313v571z"/>
<glyph unicode="Z" horiz-adv-x="1300" d="M80 0v252l747 842h-712v272h1091v-254l-733 -842h748v-270h-1141z"/>
<glyph unicode="[" horiz-adv-x="714" d="M145 -190v1636h514v-240h-239v-1155h239v-241h-514z"/>
<glyph unicode="\" horiz-adv-x="917" d="M41 1403h291l545 -1436h-297z"/>
<glyph unicode="]" horiz-adv-x="714" d="M55 51h240v1155h-240v240h514v-1636h-514v241z"/>
<glyph unicode="^" horiz-adv-x="1155" d="M90 614l361 752h254l360 -752h-295l-192 433l-193 -433h-295z"/>
<glyph unicode="_" horiz-adv-x="1024" d="M0 -133h1024v-113h-1024v113z"/>
<glyph unicode="`" horiz-adv-x="964" d="M266 1397h293l98 -291h-217z"/>
<glyph unicode="a" horiz-adv-x="1054" d="M51 268q0 84 34 149.5t93.5 109.5t140 66.5t175.5 22.5q51 0 103 -2t69 -6v21q0 37 -15.5 62.5t-41 43t-58.5 24.5t-70 7q-98 0 -162.5 -24.5t-109.5 -55.5l-121 180q31 23 70 45.5t92 41t119.5 29.5t152.5 11q219 0 323.5 -117.5t104.5 -316.5v-559h-276l-8 90 q-49 -57 -124 -88t-167 -31q-51 0 -107.5 14.5t-104.5 48.5t-80 91t-32 143zM336 299q0 -119 143 -119q35 0 69 11.5t59.5 32t42 51t16.5 71.5v78q-10 2 -39 5t-66 3q-123 0 -174 -35t-51 -98z"/>
<glyph unicode="b" horiz-adv-x="1150" d="M109 37v1329h294v-477q41 43 112 67.5t140 24.5q102 0 182.5 -39t134.5 -105.5t82.5 -153.5t28.5 -185q0 -117 -37.5 -215.5t-109.5 -168t-176.5 -108.5t-237.5 -39q-123 0 -232.5 22.5t-180.5 47.5zM403 233q25 -10 54.5 -15t83.5 -5q117 0 181 76t64 198q0 45 -11 88 t-33.5 77t-58.5 55.5t-87 21.5q-98 0 -145.5 -54t-47.5 -145v-297z"/>
<glyph unicode="c" horiz-adv-x="997" d="M66 481q0 106 38.5 199.5t107.5 163t164 109.5t208 40q131 0 227 -43t162 -114l-178 -193q-33 37 -80 65.5t-125 28.5q-53 0 -95 -21.5t-72 -56t-45.5 -81t-15.5 -97.5q0 -47 15.5 -93t45.5 -82t72 -58.5t95 -22.5q76 0 127 30t82 64l172 -192q-59 -66 -156.5 -113 t-230.5 -47q-117 0 -212.5 38t-163 106.5t-105 163t-37.5 206.5z"/>
<glyph unicode="d" horiz-adv-x="1157" d="M66 467q0 129 46 226.5t118.5 161t161.5 95t175 31.5q70 0 109 -9t80 -24v418h293v-1366h-275l-12 96q-45 -53 -116 -89t-161 -36q-88 0 -164.5 35t-133 99.5t-89 155.5t-32.5 206zM362 461q0 -104 51.5 -171t153.5 -67q49 0 85 17.5t59.5 46t34 67.5t10.5 80v262 q-31 18 -67 26.5t-89 8.5q-113 0 -175.5 -75.5t-62.5 -194.5z"/>
<glyph unicode="e" horiz-adv-x="1095" d="M66 483q0 100 33.5 193.5t97 163t155.5 111.5t209 42t205 -41t148.5 -113.5t91 -174t30.5 -222.5v-49h-684q2 -78 68.5 -136t183.5 -58q115 0 186.5 33.5t104.5 58.5l121 -187q-16 -10 -49 -33.5t-85.5 -46t-124 -40t-163.5 -17.5q-123 0 -221.5 38t-167 105.5t-104 163 t-35.5 209.5zM352 582h406q0 31 -12.5 62.5t-37 58t-61.5 44t-88 17.5t-90 -17.5t-64.5 -44t-39 -58.5t-13.5 -62z"/>
<glyph unicode="f" horiz-adv-x="729" d="M29 729v232h155v49q0 102 34 176t89 122t126 71.5t145 23.5q78 0 157.5 -22.5t145.5 -77.5q-31 -47 -63 -93.5t-62 -93.5q-31 23 -68 35t-76 12q-61 0 -98 -39t-37 -110v-53h228v-232h-228v-729h-293v729h-155z"/>
<glyph unicode="g" horiz-adv-x="1148" d="M66 463q0 117 39.5 212t112.5 163.5t174.5 105.5t225.5 37q119 0 226.5 -20.5t193.5 -51.5v-878q0 -238 -131 -351.5t-358 -113.5q-129 0 -225.5 24.5t-176.5 77.5l119 209q57 -35 122 -54.5t142 -19.5q100 0 157.5 53.5t57.5 159.5v68q-92 -80 -245 -80q-102 0 -183 34 t-136.5 95.5t-85 145t-29.5 184.5zM362 473q0 -104 50.5 -165.5t146.5 -61.5q90 0 139.5 44t49.5 138v289q-29 10 -57.5 15t-76.5 5q-63 0 -110 -21.5t-79 -57t-47.5 -84t-15.5 -101.5z"/>
<glyph unicode="h" horiz-adv-x="1155" d="M109 0v1366h292v-498q47 55 125 85t158 30q166 0 265.5 -98.5t99.5 -290.5v-594h-293v549q0 84 -43 131t-115 47q-47 0 -84 -17.5t-61.5 -46t-37 -66.5t-12.5 -81v-516h-294z"/>
<glyph unicode="i" horiz-adv-x="528" d="M106 1102v264h316v-264h-316zM117 0v961h295v-961h-295z"/>
<glyph unicode="j" horiz-adv-x="542" d="M-219 -322l108 199q23 -14 52.5 -25.5t64.5 -11.5q70 0 97.5 43t27.5 121v957h293v-912q0 -90 -14.5 -173t-55.5 -146.5t-112.5 -101.5t-186.5 -38q-88 0 -157.5 26t-116.5 62zM119 1102v264h315v-264h-315z"/>
<glyph unicode="k" horiz-adv-x="1091" d="M109 0v1366h294v-709l293 304h334l-344 -355l391 -606h-342l-246 406l-86 -89v-317h-294z"/>
<glyph unicode="l" horiz-adv-x="512" d="M109 0v1366h294v-1366h-294z"/>
<glyph unicode="m" horiz-adv-x="1767" d="M109 0v961h282l10 -107q45 55 115 92t164 37q57 0 102 -12.5t79 -31.5t59.5 -43t42.5 -46q59 63 144 98t177 35q184 0 281.5 -104.5t97.5 -284.5v-594h-295v547q0 86 -38 133t-113 47q-86 0 -137.5 -59.5t-51.5 -151.5v-516h-285v547q0 86 -37.5 133t-113.5 47 q-84 0 -136.5 -59.5t-52.5 -151.5v-516h-294z"/>
<glyph unicode="n" horiz-adv-x="1150" d="M111 0v961h282l8 -105q47 57 124 92t161 35q166 0 263.5 -98.5t97.5 -290.5v-594h-295v553q0 80 -40 127t-112 47q-49 0 -86 -17.5t-61.5 -46t-37 -66.5t-12.5 -81v-516h-292z"/>
<glyph unicode="o" horiz-adv-x="1163" d="M66 481q0 106 37.5 199.5t105 163t163 109.5t210.5 40t209 -40t161.5 -109.5t105.5 -162.5t38 -200q0 -106 -38 -199.5t-105.5 -163t-162 -110.5t-208.5 -41q-115 0 -210.5 41t-163 110.5t-105 163t-37.5 199.5zM350 481q0 -49 15.5 -95t44 -83t73 -58.5t99.5 -21.5 t98 21.5t72.5 58.5t44 83t14.5 95t-14.5 95.5t-44 82t-72.5 57t-98 21.5t-99.5 -21.5t-73 -57t-44 -82t-15.5 -95.5z"/>
<glyph unicode="p" horiz-adv-x="1167" d="M109 -410v1371h282q4 -27 6 -52.5t4 -52.5q47 59 121 91t154 32q104 0 184 -41t133.5 -109.5t80 -157.5t26.5 -184q0 -133 -45 -231t-117 -161.5t-162 -94.5t-178 -31q-70 0 -115 12.5t-82 24.5v-416h-292zM401 254q57 -39 170 -39q109 0 171.5 72.5t62.5 193.5 q0 47 -11.5 92t-35 79t-61.5 54.5t-93 20.5q-49 0 -87 -18.5t-63.5 -49t-39 -69.5t-13.5 -80v-256z"/>
<glyph unicode="q" horiz-adv-x="1155" d="M66 469q0 109 37.5 202t109.5 162.5t175.5 108.5t234.5 39q117 0 221 -18.5t203 -53.5v-1319h-295v465q-33 -35 -93.5 -58.5t-148.5 -23.5q-102 0 -184 35t-139.5 99.5t-89 155.5t-31.5 206zM362 467q0 -49 12.5 -93t37 -78t62.5 -53.5t91 -19.5q92 0 139.5 47t47.5 150 v293q-29 10 -56.5 14t-77.5 4q-127 0 -191.5 -71.5t-64.5 -192.5z"/>
<glyph unicode="r" horiz-adv-x="804" d="M109 0v961h282l10 -121q37 49 101.5 94t167.5 45q39 0 66.5 -4t54.5 -14l-48 -261q-45 14 -106 15q-104 0 -169 -62.5t-65 -177.5v-475h-294z"/>
<glyph unicode="s" horiz-adv-x="987" d="M61 109l146 188q47 -43 124 -71.5t148 -28.5q66 0 109 16t43 63q0 18 -9.5 34t-34 29t-68.5 27.5t-111 32.5q-55 14 -109.5 38t-96.5 58.5t-67.5 84t-25.5 114.5q0 68 30.5 122t85 94t129 61.5t160.5 21.5q123 0 215 -27.5t170 -80.5l-125 -195q-47 31 -107.5 55.5 t-136.5 24.5q-68 0 -98.5 -19.5t-30.5 -52.5q0 -47 63.5 -69.5t172.5 -50.5q147 -41 214 -113t67 -191q0 -80 -36 -137t-96.5 -95t-137.5 -56.5t-156 -18.5q-129 0 -244 35t-187 107z"/>
<glyph unicode="t" horiz-adv-x="856" d="M29 729v232h151v290h295v-290h248v-232h-248v-379q0 -70 27.5 -107.5t87.5 -37.5q45 0 77.5 15.5t61.5 35.5l119 -180q-139 -111 -303 -111q-102 0 -172 30t-113 82t-61.5 125.5t-18.5 164.5v362h-151z"/>
<glyph unicode="u" horiz-adv-x="1148" d="M104 365v596h295v-553q0 -82 40 -129.5t118 -47.5q45 0 80 17.5t59.5 46.5t36.5 67.5t12 79.5v519h293v-961h-282l-8 102q-47 -55 -124 -91t-161 -36q-166 0 -262.5 98.5t-96.5 291.5z"/>
<glyph unicode="v" d="M10 961h328l227 -631l219 631h322l-412 -961h-278z"/>
<glyph unicode="w" horiz-adv-x="1574" d="M14 961h303l168 -617l187 617h235l189 -617l168 617h297l-330 -961h-266l-181 537l-178 -537h-262z"/>
<glyph unicode="x" horiz-adv-x="1079" d="M12 0l357 481l-351 480h353l172 -256l174 256h321l-338 -459l369 -502h-352l-191 276l-192 -276h-322z"/>
<glyph unicode="y" horiz-adv-x="1126" d="M10 961h336l240 -607l217 607h313l-393 -955q-33 -80 -64.5 -158.5t-77.5 -141t-113 -101.5t-167 -39q-78 0 -141.5 20.5t-116.5 59.5l119 202q25 -18 54.5 -32.5t64.5 -14.5q47 0 78.5 30t60.5 101l29 78z"/>
<glyph unicode="z" horiz-adv-x="1003" d="M82 0v199l471 524h-451v238h824v-203l-473 -527h475v-231h-846z"/>
<glyph unicode="{" horiz-adv-x="634" d="M57 547v164q78 0 111 43t39 106l29 338q8 90 30.5 149.5t69.5 98.5h270q-47 -47 -70.5 -124t-31.5 -163l-29 -338q-6 -74 -54 -125t-106 -67q72 -23 111 -83.5t55 -170.5l27 -338q4 -59 32.5 -125t65.5 -102h-270q-47 39 -69.5 99t-30.5 150l-29 338q-6 63 -39 106.5 t-111 43.5z"/>
<glyph unicode="|" horiz-adv-x="538" d="M135 -336v2042h266v-2042h-266z"/>
<glyph unicode="}" horiz-adv-x="634" d="M29 -190q37 37 65.5 102t32.5 125l27 338q16 111 55 171t110 83q-57 16 -105 67.5t-54 124.5l-29 338q-8 86 -31.5 163t-70.5 124h270q47 -39 69.5 -98.5t30.5 -149.5l29 -338q6 -63 39 -106t111 -43v-164q-78 0 -111 -43t-39 -107l-29 -338q-8 -90 -30.5 -150.5 t-69.5 -98.5h-270z"/>
<glyph unicode="~" horiz-adv-x="1030" d="M72 649q20 23 50 49.5t66.5 49t79.5 37t92 14.5q43 0 77 -13.5t66 -31t64.5 -30.5t71.5 -13q59 0 101 25.5t89 66.5l129 -205q-20 -27 -49.5 -53.5t-66.5 -49t-78 -37t-82 -14.5q-47 0 -84 14.5t-69.5 32t-65.5 32t-72 14.5q-61 0 -103 -27t-89 -66z"/>
<glyph unicode="¡" horiz-adv-x="598" d="M137 -403l13 919h299l12 -919h-324zM137 645v316h322v-316h-322z"/>
<glyph unicode="¢" d="M137 641q0 94 31 179t87 151.5t134 111.5t170 62v184h180v-182q98 -12 174 -52t131 -100l-178 -192q-33 37 -80 65.5t-124 28.5q-53 0 -95.5 -21.5t-72 -56.5t-45 -81t-15.5 -97t16.5 -97t45 -82t70.5 -56.5t96 -20.5q76 0 127 30.5t81 65.5l172 -194 q-51 -55 -126.5 -97.5t-176.5 -56.5v-172h-180v174q-96 14 -174 57.5t-133 110t-85 152.5t-30 186z"/>
<glyph unicode="£" d="M76 551v197h149v124q0 84 25.5 165t80 145.5t140.5 104.5t209 40q141 0 233.5 -49t153.5 -117l-180 -196q-37 39 -79 64.5t-103 25.5q-47 0 -80 -18.5t-52.5 -48.5t-28.5 -68.5t-9 -79.5v-92h364v-197h-364v-279h538v-272h-848v551h-149z"/>
<glyph unicode="¤" d="M55 326l133 137q-51 92 -51 201t49 194l-131 135l164 166l133 -135q43 23 92.5 37t102.5 14q55 0 107.5 -15.5t99.5 -43.5l139 143l166 -166l-146 -147q20 -41 32.5 -87t12.5 -95q0 -51 -12 -98.5t-35 -90.5l148 -149l-166 -164l-143 145q-94 -53 -203 -53 q-106 0 -189 47l-139 -139zM365 664q0 -76 53 -129.5t129 -53.5t129 53.5t53 129.5t-53 129t-129 53t-129 -53t-53 -129z"/>
<glyph unicode="¥" d="M-2 1290h328l237 -524l238 524h317l-317 -590h188v-168h-276v-143h276v-168h-276v-221h-310v221h-268v168h268v143h-268v168h178z"/>
<glyph unicode="¦" horiz-adv-x="538" d="M135 -336v776h266v-776h-266zM135 930v776h266v-776h-266z"/>
<glyph unicode="§" horiz-adv-x="962" d="M80 334l158 235l417 -272q102 -66 148.5 -155t44.5 -187q0 -80 -30 -150.5t-84 -124t-129 -84t-167 -30.5q-66 0 -119 15.5t-94 34.5t-68.5 39.5t-39.5 31.5l143 215q37 -25 82 -49.5t96 -24.5q55 0 88 34t33 75q0 35 -14.5 64.5t-67.5 64.5zM102 1012q0 80 30 150.5 t84 124.5t129 85t167 31q66 0 119 -15.5t94 -36t68.5 -41t40.5 -30.5l-142 -215q-37 25 -83 49.5t-95 24.5q-57 0 -89 -33t-32 -74q0 -35 14.5 -65.5t67.5 -65.5l397 -266l-157 -236l-418 271q-104 66 -149.5 154.5t-45.5 187.5z"/>
<glyph unicode="¨" horiz-adv-x="804" d="M78 1135v233h252v-233h-252zM473 1135v233h252v-233h-252z"/>
<glyph unicode="©" horiz-adv-x="1650" d="M115 686q0 150 55 280t150.5 226t225.5 152.5t279 56.5q150 0 279 -56.5t224 -152.5t150.5 -226t55.5 -280t-55.5 -280t-151.5 -227t-225 -152.5t-279 -55.5t-278.5 55.5t-224 152.5t-150.5 227.5t-55 279.5zM297 686q0 -117 40 -216t110.5 -172t166.5 -115t209 -42 t209 42t167 115t111 172t40 216q0 115 -40 214t-111 173t-167 116t-207 42q-113 0 -209 -42t-166.5 -116t-111.5 -173t-41 -214zM442 692q0 80 29 151.5t81 124t124 83t158 30.5q106 0 187 -50t130 -122l-143 -110q-23 39 -66 68.5t-98 29.5q-90 0 -143.5 -59.5 t-53.5 -147.5q0 -86 54.5 -145.5t142.5 -59.5q59 0 100 32t64 67l143 -115q-49 -72 -130 -121t-187 -49q-88 0 -160 29.5t-123 82t-80 125t-29 156.5z"/>
<glyph unicode="ª" horiz-adv-x="786" d="M76 846q0 59 25.5 101t67.5 67.5t96 38t112 12.5q49 0 104 -6v24q0 41 -32.5 62.5t-79.5 21.5q-59 0 -104.5 -16t-84.5 -41l-88 127q59 45 130 67.5t167 22.5q129 0 210 -64.5t81 -187.5v-416h-191q0 6 -1 22.5t-3 31.5q-35 -35 -83 -54.5t-101 -19.5q-45 0 -86 13.5 t-71.5 39t-49 64.5t-18.5 90zM272 860q0 -70 95 -69q49 0 81.5 28.5t32.5 71.5v39q-10 2 -30.5 4t-61.5 2q-59 0 -88 -22.5t-29 -53.5z"/>
<glyph unicode="«" horiz-adv-x="1181" d="M109 494l213 403h290l-209 -403l209 -404h-290zM562 494l213 403h290l-209 -403l209 -404h-290z"/>
<glyph unicode="¬" d="M150 535v235h817v-522h-242v287h-575z"/>
<glyph unicode="­" horiz-adv-x="911" d="M131 432v281h649v-281h-649z"/>
<glyph unicode="®" horiz-adv-x="1650" d="M115 686q0 150 55 280t150.5 226t225.5 152.5t279 56.5q150 0 279 -56.5t224 -152.5t150.5 -226t55.5 -280t-55.5 -280t-151.5 -227t-225 -152.5t-279 -55.5t-278.5 55.5t-224 152.5t-150.5 227.5t-55 279.5zM297 686q0 -117 40 -216t110.5 -172t166.5 -115t209 -42 t209 42t167 115t111 172t40 216q0 115 -40 214t-111 173t-167 116t-207 42q-113 0 -209 -42t-166.5 -116t-111.5 -173t-41 -214zM549 338v711h299q74 0 124 -21.5t82.5 -53.5t47 -71t14.5 -72q0 -59 -31.5 -114t-91.5 -86l170 -293h-205l-149 262h-78v-262h-182zM731 745 h111q51 0 70.5 20.5t19.5 53.5q0 76 -90 76h-111v-150z"/>
<glyph unicode="¯" horiz-adv-x="804" d="M123 1130v209h559v-209h-559z"/>
<glyph unicode="°" horiz-adv-x="735" d="M70 1073q0 63 23.5 117.5t63.5 93.5t94 60.5t116 21.5q61 0 116.5 -21.5t95 -60.5t63.5 -92t24 -117q0 -63 -24 -116.5t-63.5 -92.5t-95 -60.5t-116.5 -21.5t-115.5 21.5t-94.5 60.5t-63.5 92.5t-23.5 114.5zM254 1073q0 -49 31 -83t82 -34t82.5 34t31.5 85 q0 49 -31.5 83t-82.5 34t-82 -34t-31 -85z"/>
<glyph unicode="±" d="M150 0v236h817v-236h-817zM150 535v235h286v291h242v-291h289v-235h-289v-240h-242v240h-286z"/>
<glyph unicode="²" horiz-adv-x="737" d="M76 1225q63 43 136 70.5t159 27.5q127 0 201.5 -57.5t74.5 -159.5q0 -72 -30.5 -117t-76.5 -78.5t-97.5 -62.5t-94.5 -68h303v-178h-561v111q0 51 24.5 91t61.5 72.5t80 60.5t80 53.5t61.5 49t24.5 47.5q0 29 -19.5 42.5t-52.5 13.5q-41 0 -89 -18.5t-91 -47.5z"/>
<glyph unicode="³" horiz-adv-x="737" d="M45 670l100 153q41 -29 88.5 -46t96.5 -17q43 0 71.5 17.5t28.5 53.5q0 45 -35 59.5t-78 14.5q-25 0 -52 -4t-50 -10l-43 88l223 154h-282v172h505v-156l-151 -121q98 -16 139 -74.5t41 -138.5q0 -55 -25.5 -99t-68.5 -74t-100.5 -45t-120.5 -15q-82 0 -155 23.5 t-132 64.5z"/>
<glyph unicode="´" horiz-adv-x="964" d="M336 1106l98 291h291l-172 -291h-217z"/>
<glyph unicode="µ" horiz-adv-x="1150" d="M111 -410v1371h292v-551q0 -86 41 -132.5t117 -46.5q92 0 140.5 60.5t48.5 146.5v523h294v-961h-282q-4 23 -5 46.5t-3 45.5q-33 -47 -91.5 -77.5t-132.5 -30.5q-33 0 -62.5 7t-64.5 25v-426h-292z"/>
<glyph unicode="¶" horiz-adv-x="1163" d="M63 985q0 109 39 182.5t106.5 117.5t157 62.5t187.5 18.5h74v-760h-74q-100 0 -189.5 18.5t-156 61.5t-105.5 115.5t-39 183.5zM346 -250v762q47 -14 103.5 -18.5t103.5 -4.5h74v-739h-281zM745 -250v1616h281v-1616h-281z"/>
<glyph unicode="·" horiz-adv-x="583" d="M125 492v326h334v-326h-334z"/>
<glyph unicode="¸" horiz-adv-x="1171" d="M195 -422l28 146q37 -12 73 -19.5t71 -7.5q43 0 78.5 13.5t35.5 47.5q0 31 -31.5 43.5t-74.5 12.5q-74 0 -135 -25l26 139q41 10 82 17.5t94 7.5q100 0 170 -48t70 -143q0 -55 -23.5 -96t-62.5 -67.5t-88 -40t-100 -13.5q-78 0 -132.5 11.5t-80.5 21.5z"/>
<glyph unicode="¹" horiz-adv-x="737" d="M109 1169l253 136h199v-703h-223v479l-148 -73z"/>
<glyph unicode="º" horiz-adv-x="866" d="M86 983q0 74 25.5 136.5t71.5 108.5t109.5 72.5t141.5 26.5q76 0 139.5 -26.5t108.5 -72.5t70.5 -108.5t25.5 -136.5t-25.5 -136.5t-70.5 -108.5t-108.5 -71.5t-139.5 -25.5q-78 0 -141.5 25.5t-109.5 71.5t-71.5 108.5t-25.5 136.5zM295 983q0 -66 35.5 -111t103.5 -45 q66 0 101.5 45.5t35.5 110.5q0 66 -35.5 112t-101.5 46q-68 0 -103.5 -46t-35.5 -112z"/>
<glyph unicode="»" horiz-adv-x="1173" d="M117 90l209 404l-209 403h291l213 -403l-213 -404h-291zM570 90l209 404l-209 403h291l213 -403l-213 -404h-291z"/>
<glyph unicode="¼" horiz-adv-x="1843" d="M109 1169l253 136h199v-703h-223v479l-148 -73zM371 0l823 1290h256l-819 -1290h-260zM1071 127v162l328 420h227v-431h80v-151h-80v-121h-200v121h-355zM1239 278h187v248z"/>
<glyph unicode="½" horiz-adv-x="1894" d="M107 1169l253 136h199v-703h-223v479l-148 -73zM358 0l823 1290h256l-819 -1290h-260zM1182 631q63 43 136 70.5t159 27.5q127 0 201.5 -57.5t74.5 -159.5q0 -72 -30.5 -117t-76.5 -78.5t-97.5 -62.5t-94.5 -68h303v-178h-561v111q0 51 24.5 91t61.5 72.5t80 60.5 t80 53.5t61.5 49t24.5 47.5q0 29 -19.5 42.5t-52.5 13.5q-41 0 -89 -18.5t-91 -47.5z"/>
<glyph unicode="¾" horiz-adv-x="1894" d="M129 670l100 153q41 -29 88.5 -46t96.5 -17q43 0 71.5 17.5t28.5 53.5q0 45 -35 59.5t-78 14.5q-25 0 -52 -4t-50 -10l-43 88l223 154h-282v172h505v-156l-151 -121q98 -16 139 -74.5t41 -138.5q0 -55 -25.5 -99t-68.5 -74t-100.5 -45t-120.5 -15q-82 0 -155 23.5 t-132 64.5zM444 0l823 1290h256l-819 -1290h-260zM1134 129v162l328 420h227v-431h80v-151h-80v-121h-200v121h-355zM1302 280h187v248z"/>
<glyph unicode="¿" horiz-adv-x="1077" d="M98 -63q0 59 12.5 104t35 82t53 66.5t67.5 58.5t70 53.5t55.5 51t35.5 59t13 77.5v27h281v-27q0 -111 -38 -194.5t-124 -147.5q-31 -23 -59.5 -44t-52 -43.5t-38 -48t-14.5 -56.5q0 -63 51.5 -95t116.5 -32q45 0 87 12.5t76 31.5t61.5 40.5t46.5 40.5l180 -191 q-29 -31 -71 -66.5t-100.5 -66t-133 -51t-166.5 -20.5q-96 0 -177 25.5t-140.5 74.5t-93.5 119.5t-34 159.5zM420 645v316h321v-316h-321z"/>
<glyph unicode="À" horiz-adv-x="1382" d="M14 0l510 1366h342l500 -1366h-338l-104 313h-482l-104 -313h-324zM360 1788h334l150 -320h-240zM514 553h336l-166 516z"/>
<glyph unicode="Á" horiz-adv-x="1382" d="M14 0l510 1366h342l500 -1366h-338l-104 313h-482l-104 -313h-324zM514 553h336l-166 516zM559 1468l150 320h334l-244 -320h-240z"/>
<glyph unicode="Â" horiz-adv-x="1382" d="M14 0l510 1366h342l500 -1366h-338l-104 313h-482l-104 -313h-324zM336 1468l231 320h246l232 -320h-246l-109 154l-110 -154h-244zM514 553h336l-166 516z"/>
<glyph unicode="Ã" horiz-adv-x="1382" d="M14 0l510 1366h342l500 -1366h-338l-104 313h-482l-104 -313h-324zM268 1651q43 47 111.5 87t152.5 40q41 0 75 -13.5t67 -30t65.5 -29.5t73.5 -13q63 0 109.5 23.5t80.5 51.5l111 -168q-45 -47 -112.5 -88t-151.5 -41q-41 0 -75 13.5t-66.5 31t-65.5 31t-74 13.5 q-66 0 -110.5 -24t-79.5 -52zM514 553h336l-166 516z"/>
<glyph unicode="Ä" horiz-adv-x="1382" d="M14 0l510 1366h342l500 -1366h-338l-104 313h-482l-104 -313h-324zM330 1503v250h270v-250h-270zM514 553h336l-166 516zM778 1503v250h271v-250h-271z"/>
<glyph unicode="Å" horiz-adv-x="1382" d="M14 0l502 1348q-47 35 -73.5 90t-26.5 121q0 57 21.5 107t59.5 87t89 57.5t108 20.5t108.5 -20.5t90.5 -57.5t60.5 -87t21.5 -107q0 -66 -27.5 -121.5t-75.5 -89.5l494 -1348h-338l-104 313h-482l-104 -313h-324zM514 553h336l-166 516zM600 1559q0 -41 26.5 -70 t69.5 -29q41 0 68 29t27 70q0 43 -27 70.5t-70 27.5q-41 0 -67.5 -27.5t-26.5 -70.5z"/>
<glyph unicode="Æ" horiz-adv-x="1964" d="M0 0l748 1366h1095v-270h-598v-267h461v-262h-461v-295h643v-272h-940v317h-454l-164 -317h-330zM616 555h332v557h-45z"/>
<glyph unicode="Ç" horiz-adv-x="1394" d="M80 678q0 152 51 284t144.5 229t223.5 153.5t287 56.5q190 0 333 -69.5t237 -201.5l-211 -202q-61 86 -145.5 138t-200.5 52q-92 0 -166 -33.5t-125 -93t-79 -138.5t-28 -167q0 -90 28 -168t79 -135t122.5 -90t162.5 -33q74 0 128 15.5t96 41t74.5 59.5t63.5 68l211 -192 q-43 -59 -104.5 -111.5t-136 -91.5t-161.5 -61.5t-182 -22.5q-156 0 -284.5 53.5t-222 148.5t-144.5 225t-51 286zM521 -436l28 148q74 -25 146 -25q41 0 76.5 10t35.5 45q0 29 -31.5 40t-72.5 11q-35 0 -71 -5t-66 -15l26 139q41 12 83 17.5t95 5.5q100 0 172 -47t72 -140 q0 -55 -24.5 -96t-64.5 -67.5t-89 -39t-100 -12.5q-78 0 -133.5 10.5t-81.5 20.5z"/>
<glyph unicode="È" horiz-adv-x="1187" d="M133 0v1366h934v-270h-625v-267h486v-262h-486v-295h670v-272h-979zM303 1788h334l150 -320h-240z"/>
<glyph unicode="É" horiz-adv-x="1187" d="M133 0v1366h934v-270h-625v-267h486v-262h-486v-295h670v-272h-979zM477 1468l150 320h334l-244 -320h-240z"/>
<glyph unicode="Ê" horiz-adv-x="1187" d="M133 0v1366h934v-270h-625v-267h486v-262h-486v-295h670v-272h-979zM252 1468l231 320h246l232 -320h-246l-109 154l-110 -154h-244z"/>
<glyph unicode="Ë" horiz-adv-x="1187" d="M133 0v1366h934v-270h-625v-267h486v-262h-486v-295h670v-272h-979zM244 1503v250h270v-250h-270zM692 1503v250h271v-250h-271z"/>
<glyph unicode="Ì" horiz-adv-x="575" d="M-41 1788h334l150 -320h-240zM133 0v1366h309v-1366h-309z"/>
<glyph unicode="Í" horiz-adv-x="575" d="M133 0v1366h309v-1366h-309zM145 1468l150 320h334l-244 -320h-240z"/>
<glyph unicode="Î" horiz-adv-x="575" d="M-57 1468l231 320h246l232 -320h-246l-109 154l-110 -154h-244zM133 0v1366h309v-1366h-309z"/>
<glyph unicode="Ï" horiz-adv-x="575" d="M-63 1503v250h270v-250h-270zM133 0v1366h309v-1366h-309zM385 1503v250h271v-250h-271z"/>
<glyph unicode="Ð" horiz-adv-x="1468" d="M2 590v196h131v580h516q158 0 292 -41t231.5 -125t151.5 -215t54 -309q0 -170 -55 -296t-152.5 -211t-231.5 -127t-292 -42h-514v590h-131zM442 274h191q205 0 315.5 107.5t110.5 296.5q0 94 -24.5 171t-77 131t-133.5 84t-191 30h-191v-308h271v-196h-271v-316z"/>
<glyph unicode="Ñ" horiz-adv-x="1458" d="M133 0v1366h295l592 -887v887h305v-1366h-281l-606 903v-903h-305zM291 1651q43 47 111.5 87t152.5 40q41 0 75 -13.5t67 -30t65.5 -29.5t73.5 -13q63 0 109.5 23.5t80.5 51.5l111 -168q-45 -47 -112.5 -88t-151.5 -41q-41 0 -75 13.5t-66.5 31t-65.5 31t-74 13.5 q-66 0 -110.5 -24t-79.5 -52z"/>
<glyph unicode="Ò" horiz-adv-x="1581" d="M80 684q0 154 54 285t149.5 227t225.5 151.5t282 55.5t281.5 -55.5t225 -151.5t149.5 -227t54 -285q0 -152 -54 -284t-149.5 -228t-225 -151.5t-281.5 -55.5t-282 55.5t-225.5 151.5t-149.5 228t-54 284zM401 688q0 -88 27 -166t77 -137t123 -94t163 -35t161.5 35 t121.5 94t77 137t27 166t-27 166t-77 136.5t-121.5 92t-161.5 33.5t-163 -33.5t-123 -92t-77 -136.5t-27 -166zM461 1788h334l150 -320h-240z"/>
<glyph unicode="Ó" horiz-adv-x="1581" d="M80 684q0 154 54 285t149.5 227t225.5 151.5t282 55.5t281.5 -55.5t225 -151.5t149.5 -227t54 -285q0 -152 -54 -284t-149.5 -228t-225 -151.5t-281.5 -55.5t-282 55.5t-225.5 151.5t-149.5 228t-54 284zM401 688q0 -88 27 -166t77 -137t123 -94t163 -35t161.5 35 t121.5 94t77 137t27 166t-27 166t-77 136.5t-121.5 92t-161.5 33.5t-163 -33.5t-123 -92t-77 -136.5t-27 -166zM635 1468l150 320h334l-244 -320h-240z"/>
<glyph unicode="Ô" horiz-adv-x="1581" d="M80 684q0 154 54 285t149.5 227t225.5 151.5t282 55.5t281.5 -55.5t225 -151.5t149.5 -227t54 -285q0 -152 -54 -284t-149.5 -228t-225 -151.5t-281.5 -55.5t-282 55.5t-225.5 151.5t-149.5 228t-54 284zM401 688q0 -88 27 -166t77 -137t123 -94t163 -35t161.5 35 t121.5 94t77 137t27 166t-27 166t-77 136.5t-121.5 92t-161.5 33.5t-163 -33.5t-123 -92t-77 -136.5t-27 -166zM436 1468l231 320h246l232 -320h-246l-109 154l-110 -154h-244z"/>
<glyph unicode="Õ" horiz-adv-x="1581" d="M80 684q0 154 54 285t149.5 227t225.5 151.5t282 55.5t281.5 -55.5t225 -151.5t149.5 -227t54 -285q0 -152 -54 -284t-149.5 -228t-225 -151.5t-281.5 -55.5t-282 55.5t-225.5 151.5t-149.5 228t-54 284zM368 1651q43 47 111.5 87t152.5 40q41 0 75 -13.5t67 -30 t65.5 -29.5t73.5 -13q63 0 109.5 23.5t80.5 51.5l111 -168q-45 -47 -112.5 -88t-151.5 -41q-41 0 -75 13.5t-66.5 31t-65.5 31t-74 13.5q-66 0 -110.5 -24t-79.5 -52zM401 688q0 -88 27 -166t77 -137t123 -94t163 -35t161.5 35t121.5 94t77 137t27 166t-27 166t-77 136.5 t-121.5 92t-161.5 33.5t-163 -33.5t-123 -92t-77 -136.5t-27 -166z"/>
<glyph unicode="Ö" horiz-adv-x="1581" d="M80 684q0 154 54 285t149.5 227t225.5 151.5t282 55.5t281.5 -55.5t225 -151.5t149.5 -227t54 -285q0 -152 -54 -284t-149.5 -228t-225 -151.5t-281.5 -55.5t-282 55.5t-225.5 151.5t-149.5 228t-54 284zM401 688q0 -88 27 -166t77 -137t123 -94t163 -35t161.5 35 t121.5 94t77 137t27 166t-27 166t-77 136.5t-121.5 92t-161.5 33.5t-163 -33.5t-123 -92t-77 -136.5t-27 -166zM430 1503v250h270v-250h-270zM878 1503v250h271v-250h-271z"/>
<glyph unicode="×" d="M154 412l237 239l-235 238l166 166l237 -238l240 240l164 -166l-238 -240l236 -235l-166 -168l-238 237l-238 -239z"/>
<glyph unicode="Ø" horiz-adv-x="1581" d="M80 680q0 154 54 285t149.5 227t225.5 151.5t282 55.5q176 0 323 -76l117 170l172 -111l-121 -176q102 -98 160.5 -232t58.5 -294q0 -152 -54 -284t-149.5 -228t-225.5 -151.5t-281 -55.5q-88 0 -169 18.5t-153 53.5l-115 -166l-172 110l119 173q-104 98 -162.5 234 t-58.5 296zM401 684q0 -160 80 -274l465 671q-72 31 -155 31q-90 0 -163 -34t-123 -92t-77 -136t-27 -166zM641 283q63 -31 150 -31q90 0 161.5 35t121.5 94t77 137t27 166q0 150 -76 264z"/>
<glyph unicode="Ù" horiz-adv-x="1392" d="M123 518v848h311v-809q0 -68 13.5 -122t44 -93t81 -60.5t123.5 -21.5q72 0 122 21.5t81 60.5t44 93t13 122v809h314v-848q0 -123 -40 -225.5t-115 -175t-181.5 -113.5t-237.5 -41t-237.5 40t-181 113.5t-114.5 176t-40 225.5zM389 1788h334l150 -320h-240z"/>
<glyph unicode="Ú" horiz-adv-x="1392" d="M123 518v848h311v-809q0 -68 13.5 -122t44 -93t81 -60.5t123.5 -21.5q72 0 122 21.5t81 60.5t44 93t13 122v809h314v-848q0 -123 -40 -225.5t-115 -175t-181.5 -113.5t-237.5 -41t-237.5 40t-181 113.5t-114.5 176t-40 225.5zM549 1468l150 320h334l-244 -320h-240z"/>
<glyph unicode="Û" horiz-adv-x="1392" d="M123 518v848h311v-809q0 -68 13.5 -122t44 -93t81 -60.5t123.5 -21.5q72 0 122 21.5t81 60.5t44 93t13 122v809h314v-848q0 -123 -40 -225.5t-115 -175t-181.5 -113.5t-237.5 -41t-237.5 40t-181 113.5t-114.5 176t-40 225.5zM342 1468l231 320h246l232 -320h-246 l-109 154l-110 -154h-244z"/>
<glyph unicode="Ü" horiz-adv-x="1392" d="M123 518v848h311v-809q0 -68 13.5 -122t44 -93t81 -60.5t123.5 -21.5q72 0 122 21.5t81 60.5t44 93t13 122v809h314v-848q0 -123 -40 -225.5t-115 -175t-181.5 -113.5t-237.5 -41t-237.5 40t-181 113.5t-114.5 176t-40 225.5zM336 1503v250h270v-250h-270zM784 1503v250 h271v-250h-271z"/>
<glyph unicode="Ý" horiz-adv-x="1302" d="M14 1366h351l297 -516l288 516h336l-479 -793v-573h-313v571zM536 1468l150 320h334l-244 -320h-240z"/>
<glyph unicode="Þ" horiz-adv-x="1183" d="M133 0v1366h301v-223h197q127 0 217 -37t148.5 -97.5t86 -139t27.5 -164.5q0 -111 -38 -195t-102.5 -139.5t-148.5 -84t-176 -28.5h-211v-258h-301zM434 510h180q86 0 136.5 51t50.5 135q0 88 -51.5 141.5t-137.5 53.5h-178v-381z"/>
<glyph unicode="ß" horiz-adv-x="1265" d="M104 0v956q0 121 37 205t102.5 137.5t158 78t200.5 24.5q82 0 158 -20.5t134 -61.5t94 -103.5t36 -144.5q0 -76 -29.5 -132t-66.5 -100t-67 -79t-30 -66q0 -35 36 -55.5t96 -38.5q51 -16 96 -38.5t78.5 -58.5t52 -88.5t18.5 -125.5q0 -76 -30.5 -135.5t-83 -99.5 t-123 -61.5t-152.5 -21.5q-98 0 -187 24.5t-159 80.5l150 198q39 -33 85 -51t89 -18q59 0 95 18.5t36 63.5q0 47 -41 74.5t-133 58.5q-41 14 -78 32.5t-66.5 47t-47 71.5t-17.5 105q0 63 29.5 113.5t66.5 93.5t66.5 80.5t29.5 74.5q0 59 -40 93t-109 34q-102 0 -145.5 -62.5 t-43.5 -156.5v-946h-295z"/>
<glyph unicode="à" horiz-adv-x="1054" d="M51 268q0 84 34 149.5t93.5 109.5t140 66.5t175.5 22.5q51 0 103 -2t69 -6v21q0 37 -15.5 62.5t-41 43t-58.5 24.5t-70 7q-98 0 -162.5 -24.5t-109.5 -55.5l-121 180q31 23 70 45.5t92 41t119.5 29.5t152.5 11q219 0 323.5 -117.5t104.5 -316.5v-559h-276l-8 90 q-49 -57 -124 -88t-167 -31q-51 0 -107.5 14.5t-104.5 48.5t-80 91t-32 143zM270 1397h293l98 -291h-217zM336 299q0 -119 143 -119q35 0 69 11.5t59.5 32t42 51t16.5 71.5v78q-10 2 -39 5t-66 3q-123 0 -174 -35t-51 -98z"/>
<glyph unicode="á" horiz-adv-x="1054" d="M51 268q0 84 34 149.5t93.5 109.5t140 66.5t175.5 22.5q51 0 103 -2t69 -6v21q0 37 -15.5 62.5t-41 43t-58.5 24.5t-70 7q-98 0 -162.5 -24.5t-109.5 -55.5l-121 180q31 23 70 45.5t92 41t119.5 29.5t152.5 11q219 0 323.5 -117.5t104.5 -316.5v-559h-276l-8 90 q-49 -57 -124 -88t-167 -31q-51 0 -107.5 14.5t-104.5 48.5t-80 91t-32 143zM336 299q0 -119 143 -119q35 0 69 11.5t59.5 32t42 51t16.5 71.5v78q-10 2 -39 5t-66 3q-123 0 -174 -35t-51 -98zM393 1106l98 291h291l-172 -291h-217z"/>
<glyph unicode="â" horiz-adv-x="1054" d="M51 268q0 84 34 149.5t93.5 109.5t140 66.5t175.5 22.5q51 0 103 -2t69 -6v21q0 37 -15.5 62.5t-41 43t-58.5 24.5t-70 7q-98 0 -162.5 -24.5t-109.5 -55.5l-121 180q31 23 70 45.5t92 41t119.5 29.5t152.5 11q219 0 323.5 -117.5t104.5 -316.5v-559h-276l-8 90 q-49 -57 -124 -88t-167 -31q-51 0 -107.5 14.5t-104.5 48.5t-80 91t-32 143zM178 1106l217 291h248l217 -291h-244l-98 135l-97 -135h-243zM336 299q0 -119 143 -119q35 0 69 11.5t59.5 32t42 51t16.5 71.5v78q-10 2 -39 5t-66 3q-123 0 -174 -35t-51 -98z"/>
<glyph unicode="ã" horiz-adv-x="1054" d="M51 268q0 84 34 149.5t93.5 109.5t140 66.5t175.5 22.5q51 0 103 -2t69 -6v21q0 37 -15.5 62.5t-41 43t-58.5 24.5t-70 7q-98 0 -162.5 -24.5t-109.5 -55.5l-121 180q31 23 70 45.5t92 41t119.5 29.5t152.5 11q219 0 323.5 -117.5t104.5 -316.5v-559h-276l-8 90 q-49 -57 -124 -88t-167 -31q-51 0 -107.5 14.5t-104.5 48.5t-80 91t-32 143zM106 1270q41 45 107.5 84t146.5 39q39 0 73 -13.5t64.5 -30t63.5 -29.5t72 -13q61 0 105 24.5t79 50.5l104 -161q-41 -45 -107.5 -85t-146.5 -40q-41 0 -73.5 13t-63.5 29.5t-63.5 30t-71.5 13.5 q-61 0 -105 -23.5t-79 -50.5zM336 299q0 -119 143 -119q35 0 69 11.5t59.5 32t42 51t16.5 71.5v78q-10 2 -39 5t-66 3q-123 0 -174 -35t-51 -98z"/>
<glyph unicode="ä" horiz-adv-x="1054" d="M51 268q0 84 34 149.5t93.5 109.5t140 66.5t175.5 22.5q51 0 103 -2t69 -6v21q0 37 -15.5 62.5t-41 43t-58.5 24.5t-70 7q-98 0 -162.5 -24.5t-109.5 -55.5l-121 180q31 23 70 45.5t92 41t119.5 29.5t152.5 11q219 0 323.5 -117.5t104.5 -316.5v-559h-276l-8 90 q-49 -57 -124 -88t-167 -31q-51 0 -107.5 14.5t-104.5 48.5t-80 91t-32 143zM205 1135v233h252v-233h-252zM336 299q0 -119 143 -119q35 0 69 11.5t59.5 32t42 51t16.5 71.5v78q-10 2 -39 5t-66 3q-123 0 -174 -35t-51 -98zM600 1135v233h252v-233h-252z"/>
<glyph unicode="å" horiz-adv-x="1054" d="M51 268q0 84 34 149.5t93.5 109.5t140 66.5t175.5 22.5q51 0 103 -2t69 -6v21q0 37 -15.5 62.5t-41 43t-58.5 24.5t-70 7q-98 0 -162.5 -24.5t-109.5 -55.5l-121 180q31 23 70 45.5t92 41t119.5 29.5t152.5 11q219 0 323.5 -117.5t104.5 -316.5v-559h-276l-8 90 q-49 -57 -124 -88t-167 -31q-51 0 -107.5 14.5t-104.5 48.5t-80 91t-32 143zM280 1321q0 51 19.5 95t53.5 76t79 49.5t94 17.5q51 0 96 -17.5t79 -49.5t53.5 -76t19.5 -95t-19.5 -94t-53.5 -75t-79 -50.5t-94 -18.5q-51 0 -96 18.5t-79 50.5t-53.5 75t-19.5 94zM336 299 q0 -119 143 -119q35 0 69 11.5t59.5 32t42 51t16.5 71.5v78q-10 2 -39 5t-66 3q-123 0 -174 -35t-51 -98zM444 1321q0 -35 23.5 -59.5t58.5 -24.5t59.5 24.5t24.5 59.5t-23.5 59.5t-58.5 24.5t-59.5 -24.5t-24.5 -59.5z"/>
<glyph unicode="æ" horiz-adv-x="1683" d="M51 272q0 84 34 147.5t93.5 105.5t140 62.5t175.5 20.5q49 0 100 -3t72 -5v29q0 74 -56.5 105.5t-136.5 31.5q-90 0 -154.5 -24.5t-109.5 -55.5l-121 180q31 23 70 45.5t90 41t115.5 29.5t144.5 11q113 0 191.5 -31.5t131.5 -91.5q55 59 137.5 91t188.5 32q115 0 202 -41 t145.5 -113.5t88 -174t29.5 -222.5v-49h-684q0 -39 18.5 -73.5t51 -61.5t79 -43t105.5 -16q115 0 186.5 33.5t104.5 58.5q29 -47 59.5 -93t59.5 -94q-16 -10 -49 -33.5t-84.5 -46t-123 -40t-163.5 -17.5q-129 0 -224.5 40t-160.5 112q-80 -82 -169 -116t-212 -34 q-70 0 -135.5 16.5t-116.5 52.5t-82 93t-31 141zM332 299q0 -57 38 -88t109 -31q78 0 132.5 43t54.5 123v70q-31 6 -123 6q-100 0 -155.5 -30t-55.5 -93zM938 582h408q0 33 -12.5 65.5t-37 59t-61.5 42t-88 15.5t-90 -17.5t-65.5 -44t-40 -58.5t-13.5 -62z"/>
<glyph unicode="ç" horiz-adv-x="997" d="M66 481q0 106 38.5 199.5t107.5 163t164 109.5t208 40q131 0 227 -43t162 -114l-178 -193q-33 37 -80 65.5t-125 28.5q-53 0 -95 -21.5t-72 -56t-45.5 -81t-15.5 -97.5q0 -47 15.5 -93t45.5 -82t72 -58.5t95 -22.5q76 0 127 30t82 64l172 -192q-59 -66 -156.5 -113 t-230.5 -47q-117 0 -212.5 38t-163 106.5t-105 163t-37.5 206.5zM326 -434l28 146q37 -12 73 -19.5t71 -7.5q43 0 78.5 13.5t35.5 47.5q0 31 -31.5 43.5t-74.5 12.5q-74 0 -135 -25l26 139q41 10 82 17.5t94 7.5q100 0 170 -48t70 -143q0 -55 -23.5 -96t-62.5 -67.5t-88 -40 t-100 -13.5q-78 0 -132.5 11.5t-80.5 21.5z"/>
<glyph unicode="è" horiz-adv-x="1095" d="M66 483q0 100 33.5 193.5t97 163t155.5 111.5t209 42t205 -41t148.5 -113.5t91 -174t30.5 -222.5v-49h-684q2 -78 68.5 -136t183.5 -58q115 0 186.5 33.5t104.5 58.5l121 -187q-16 -10 -49 -33.5t-85.5 -46t-124 -40t-163.5 -17.5q-123 0 -221.5 38t-167 105.5t-104 163 t-35.5 209.5zM303 1397h293l98 -291h-217zM352 582h406q0 31 -12.5 62.5t-37 58t-61.5 44t-88 17.5t-90 -17.5t-64.5 -44t-39 -58.5t-13.5 -62z"/>
<glyph unicode="é" horiz-adv-x="1095" d="M66 483q0 100 33.5 193.5t97 163t155.5 111.5t209 42t205 -41t148.5 -113.5t91 -174t30.5 -222.5v-49h-684q2 -78 68.5 -136t183.5 -58q115 0 186.5 33.5t104.5 58.5l121 -187q-16 -10 -49 -33.5t-85.5 -46t-124 -40t-163.5 -17.5q-123 0 -221.5 38t-167 105.5t-104 163 t-35.5 209.5zM352 582h406q0 31 -12.5 62.5t-37 58t-61.5 44t-88 17.5t-90 -17.5t-64.5 -44t-39 -58.5t-13.5 -62zM445 1106l98 291h291l-172 -291h-217z"/>
<glyph unicode="ê" horiz-adv-x="1095" d="M66 483q0 100 33.5 193.5t97 163t155.5 111.5t209 42t205 -41t148.5 -113.5t91 -174t30.5 -222.5v-49h-684q2 -78 68.5 -136t183.5 -58q115 0 186.5 33.5t104.5 58.5l121 -187q-16 -10 -49 -33.5t-85.5 -46t-124 -40t-163.5 -17.5q-123 0 -221.5 38t-167 105.5t-104 163 t-35.5 209.5zM211 1106l217 291h248l217 -291h-244l-98 135l-97 -135h-243zM352 582h406q0 31 -12.5 62.5t-37 58t-61.5 44t-88 17.5t-90 -17.5t-64.5 -44t-39 -58.5t-13.5 -62z"/>
<glyph unicode="ë" horiz-adv-x="1095" d="M66 483q0 100 33.5 193.5t97 163t155.5 111.5t209 42t205 -41t148.5 -113.5t91 -174t30.5 -222.5v-49h-684q2 -78 68.5 -136t183.5 -58q115 0 186.5 33.5t104.5 58.5l121 -187q-16 -10 -49 -33.5t-85.5 -46t-124 -40t-163.5 -17.5q-123 0 -221.5 38t-167 105.5t-104 163 t-35.5 209.5zM228 1135v233h252v-233h-252zM352 582h406q0 31 -12.5 62.5t-37 58t-61.5 44t-88 17.5t-90 -17.5t-64.5 -44t-39 -58.5t-13.5 -62zM623 1135v233h252v-233h-252z"/>
<glyph unicode="ì" horiz-adv-x="528" d="M-4 1397h293l98 -291h-217zM117 0v961h295v-961h-295z"/>
<glyph unicode="í" horiz-adv-x="528" d="M117 0v961h295v-961h-295zM156 1106l98 291h291l-172 -291h-217z"/>
<glyph unicode="î" horiz-adv-x="528" d="M-67 1106l217 291h248l217 -291h-244l-98 135l-97 -135h-243zM117 0v961h295v-961h-295z"/>
<glyph unicode="ï" horiz-adv-x="528" d="M-57 1135v233h252v-233h-252zM117 0v961h295v-961h-295zM338 1135v233h252v-233h-252z"/>
<glyph unicode="ð" horiz-adv-x="1144" d="M66 449q0 100 37.5 186t102 149.5t151.5 99.5t188 36q61 0 110.5 -10.5t79.5 -20.5q-27 59 -76 116.5t-135 104.5l-96 -143l-133 88l76 112q-35 10 -74 16.5t-80 10.5l37 201q133 -10 244 -37l84 123l133 -86l-62 -92q117 -55 198 -134t131 -175.5t72.5 -205t22.5 -221.5 q0 -147 -39 -259.5t-108.5 -187.5t-166.5 -114t-212 -39q-98 0 -187.5 33t-155 95.5t-104 151.5t-38.5 202zM352 453q0 -98 59.5 -164t151.5 -66q100 0 164 78t64 225q0 27 -2.5 55.5t-10.5 59.5q-33 18 -79 33.5t-101 15.5q-51 0 -96 -15.5t-78 -46t-52.5 -74.5t-19.5 -101 z"/>
<glyph unicode="ñ" horiz-adv-x="1150" d="M111 0v961h282l8 -105q47 57 124 92t161 35q166 0 263.5 -98.5t97.5 -290.5v-594h-295v553q0 80 -40 127t-112 47q-49 0 -86 -17.5t-61.5 -46t-37 -66.5t-12.5 -81v-516h-292zM159 1270q41 45 107.5 84t146.5 39q39 0 73 -13.5t64.5 -30t63.5 -29.5t72 -13q61 0 105 24.5 t79 50.5l104 -161q-41 -45 -107.5 -85t-146.5 -40q-41 0 -73.5 13t-63.5 29.5t-63.5 30t-71.5 13.5q-61 0 -105 -23.5t-79 -50.5z"/>
<glyph unicode="ò" horiz-adv-x="1163" d="M66 481q0 106 37.5 199.5t105 163t163 109.5t210.5 40t209 -40t161.5 -109.5t105.5 -162.5t38 -200q0 -106 -38 -199.5t-105.5 -163t-162 -110.5t-208.5 -41q-115 0 -210.5 41t-163 110.5t-105 163t-37.5 199.5zM323 1397h293l98 -291h-217zM350 481q0 -49 15.5 -95 t44 -83t73 -58.5t99.5 -21.5t98 21.5t72.5 58.5t44 83t14.5 95t-14.5 95.5t-44 82t-72.5 57t-98 21.5t-99.5 -21.5t-73 -57t-44 -82t-15.5 -95.5z"/>
<glyph unicode="ó" horiz-adv-x="1163" d="M66 481q0 106 37.5 199.5t105 163t163 109.5t210.5 40t209 -40t161.5 -109.5t105.5 -162.5t38 -200q0 -106 -38 -199.5t-105.5 -163t-162 -110.5t-208.5 -41q-115 0 -210.5 41t-163 110.5t-105 163t-37.5 199.5zM350 481q0 -49 15.5 -95t44 -83t73 -58.5t99.5 -21.5 t98 21.5t72.5 58.5t44 83t14.5 95t-14.5 95.5t-44 82t-72.5 57t-98 21.5t-99.5 -21.5t-73 -57t-44 -82t-15.5 -95.5zM451 1106l98 291h291l-172 -291h-217z"/>
<glyph unicode="ô" horiz-adv-x="1163" d="M66 481q0 106 37.5 199.5t105 163t163 109.5t210.5 40t209 -40t161.5 -109.5t105.5 -162.5t38 -200q0 -106 -38 -199.5t-105.5 -163t-162 -110.5t-208.5 -41q-115 0 -210.5 41t-163 110.5t-105 163t-37.5 199.5zM242 1106l217 291h248l217 -291h-244l-98 135l-97 -135 h-243zM350 481q0 -49 15.5 -95t44 -83t73 -58.5t99.5 -21.5t98 21.5t72.5 58.5t44 83t14.5 95t-14.5 95.5t-44 82t-72.5 57t-98 21.5t-99.5 -21.5t-73 -57t-44 -82t-15.5 -95.5z"/>
<glyph unicode="õ" horiz-adv-x="1163" d="M66 481q0 106 37.5 199.5t105 163t163 109.5t210.5 40t209 -40t161.5 -109.5t105.5 -162.5t38 -200q0 -106 -38 -199.5t-105.5 -163t-162 -110.5t-208.5 -41q-115 0 -210.5 41t-163 110.5t-105 163t-37.5 199.5zM176 1270q41 45 107.5 84t146.5 39q39 0 73 -13.5 t64.5 -30t63.5 -29.5t72 -13q61 0 105 24.5t79 50.5l104 -161q-41 -45 -107.5 -85t-146.5 -40q-41 0 -73.5 13t-63.5 29.5t-63.5 30t-71.5 13.5q-61 0 -105 -23.5t-79 -50.5zM350 481q0 -49 15.5 -95t44 -83t73 -58.5t99.5 -21.5t98 21.5t72.5 58.5t44 83t14.5 95 t-14.5 95.5t-44 82t-72.5 57t-98 21.5t-99.5 -21.5t-73 -57t-44 -82t-15.5 -95.5z"/>
<glyph unicode="ö" horiz-adv-x="1163" d="M66 481q0 106 37.5 199.5t105 163t163 109.5t210.5 40t209 -40t161.5 -109.5t105.5 -162.5t38 -200q0 -106 -38 -199.5t-105.5 -163t-162 -110.5t-208.5 -41q-115 0 -210.5 41t-163 110.5t-105 163t-37.5 199.5zM258 1135v233h252v-233h-252zM350 481q0 -49 15.5 -95 t44 -83t73 -58.5t99.5 -21.5t98 21.5t72.5 58.5t44 83t14.5 95t-14.5 95.5t-44 82t-72.5 57t-98 21.5t-99.5 -21.5t-73 -57t-44 -82t-15.5 -95.5zM653 1135v233h252v-233h-252z"/>
<glyph unicode="÷" d="M150 535v235h817v-235h-817zM428 182v242h260v-242h-260zM428 883v241h260v-241h-260z"/>
<glyph unicode="ø" horiz-adv-x="1163" d="M66 481q0 106 37.5 199.5t105 163t163 109.5t210.5 40q121 0 221 -47l90 129l139 -92l-90 -131q72 -72 113 -166t41 -205q0 -106 -38 -199.5t-105.5 -163t-162 -110.5t-208.5 -41q-121 0 -224 45l-88 -127l-139 92l88 129q-72 72 -112.5 168.5t-40.5 206.5zM346 481 q0 -39 8 -75.5t27 -67.5l272 393q-35 12 -71 12q-57 0 -101.5 -22.5t-74 -59t-45 -84t-15.5 -96.5zM508 227q37 -10 74 -10q57 0 101 22.5t73.5 59.5t45 85t15.5 97q0 76 -35 140z"/>
<glyph unicode="ù" horiz-adv-x="1148" d="M104 365v596h295v-553q0 -82 40 -129.5t118 -47.5q45 0 80 17.5t59.5 46.5t36.5 67.5t12 79.5v519h293v-961h-282l-8 102q-47 -55 -124 -91t-161 -36q-166 0 -262.5 98.5t-96.5 291.5zM323 1397h293l98 -291h-217z"/>
<glyph unicode="ú" horiz-adv-x="1148" d="M104 365v596h295v-553q0 -82 40 -129.5t118 -47.5q45 0 80 17.5t59.5 46.5t36.5 67.5t12 79.5v519h293v-961h-282l-8 102q-47 -55 -124 -91t-161 -36q-166 0 -262.5 98.5t-96.5 291.5zM449 1106l98 291h291l-172 -291h-217z"/>
<glyph unicode="û" horiz-adv-x="1148" d="M104 365v596h295v-553q0 -82 40 -129.5t118 -47.5q45 0 80 17.5t59.5 46.5t36.5 67.5t12 79.5v519h293v-961h-282l-8 102q-47 -55 -124 -91t-161 -36q-166 0 -262.5 98.5t-96.5 291.5zM234 1106l217 291h248l217 -291h-244l-98 135l-97 -135h-243z"/>
<glyph unicode="ü" horiz-adv-x="1148" d="M104 365v596h295v-553q0 -82 40 -129.5t118 -47.5q45 0 80 17.5t59.5 46.5t36.5 67.5t12 79.5v519h293v-961h-282l-8 102q-47 -55 -124 -91t-161 -36q-166 0 -262.5 98.5t-96.5 291.5zM254 1135v233h252v-233h-252zM649 1135v233h252v-233h-252z"/>
<glyph unicode="ý" horiz-adv-x="1126" d="M10 961h336l240 -607l217 607h313l-393 -955q-33 -80 -64.5 -158.5t-77.5 -141t-113 -101.5t-167 -39q-78 0 -141.5 20.5t-116.5 59.5l119 202q25 -18 54.5 -32.5t64.5 -14.5q47 0 78.5 30t60.5 101l29 78zM461 1106l98 291h291l-172 -291h-217z"/>
<glyph unicode="þ" horiz-adv-x="1167" d="M109 -412v1778h292v-504q47 59 123 88t152 29q104 0 184 -41t133.5 -108.5t80 -155.5t26.5 -182q0 -135 -44 -233.5t-116 -163t-162 -95.5t-180 -31q-70 0 -115 12.5t-82 24.5v-418h-292zM401 254q57 -39 170 -39q109 0 171.5 72.5t62.5 197.5q0 47 -11.5 91.5t-35 78 t-61.5 53t-93 19.5q-49 0 -87 -18.5t-63.5 -49t-39 -69.5t-13.5 -80v-256z"/>
<glyph unicode="ÿ" horiz-adv-x="1126" d="M10 961h336l240 -607l217 607h313l-393 -955q-33 -80 -64.5 -158.5t-77.5 -141t-113 -101.5t-167 -39q-78 0 -141.5 20.5t-116.5 59.5l119 202q25 -18 54.5 -32.5t64.5 -14.5q47 0 78.5 30t60.5 101l29 78zM244 1135v233h252v-233h-252zM639 1135v233h252v-233h-252z"/>
<glyph unicode="Œ" horiz-adv-x="2203" d="M80 684q0 154 53 284t146.5 226t218.5 150.5t268 54.5q82 0 150.5 -16.5t123 -44t92 -62.5t60.5 -74v164h891v-270h-625v-267h488v-262h-488v-295h670v-272h-936v164q-66 -86 -174.5 -140.5t-257.5 -54.5q-145 0 -269 54.5t-215.5 150.5t-143.5 227t-52 283zM401 688 q0 -88 27 -166t77 -137t123 -94t163 -35t161.5 35t121.5 94t77 137t27 166t-27 166t-77 136.5t-121.5 92t-164.5 33.5q-90 0 -161.5 -33.5t-121.5 -92t-77 -136.5t-27 -166z"/>
<glyph unicode="œ" horiz-adv-x="1832" d="M66 481q0 106 37.5 199.5t105 163t163 109.5t210.5 40q113 0 202.5 -43t151.5 -114q63 74 154.5 115.5t207.5 41.5q119 0 209 -42t148.5 -115.5t88.5 -174t30 -219.5v-49h-684q2 -78 68.5 -136t182.5 -58q115 0 186.5 33.5t104.5 58.5l121 -187q-16 -10 -49 -33.5 t-85 -46t-124 -40t-164 -17.5q-129 0 -227 41t-168 117q-59 -72 -151.5 -115t-202.5 -43q-115 0 -210.5 41t-163 110.5t-105 163t-37.5 199.5zM350 481q0 -49 15.5 -95t44 -83t73 -58.5t99.5 -21.5t98 21.5t72.5 58.5t44 83t14.5 95t-14.5 95.5t-44 82t-72.5 57t-98 21.5 t-99.5 -21.5t-73 -57t-44 -82t-15.5 -95.5zM1090 582h405q0 31 -12.5 62.5t-37 58t-61 44t-88.5 17.5q-51 0 -90 -17.5t-64.5 -44t-38.5 -58.5t-13 -62z"/>
<glyph unicode="Ÿ" horiz-adv-x="1302" d="M14 1366h351l297 -516l288 516h336l-479 -793v-573h-313v571zM293 1503v250h270v-250h-270zM741 1503v250h271v-250h-271z"/>
<glyph unicode="ˆ" horiz-adv-x="909" d="M115 1106l217 291h248l217 -291h-244l-98 135l-97 -135h-243z"/>
<glyph unicode="˜" horiz-adv-x="923" d="M53 1270q41 45 107.5 84t146.5 39q39 0 73 -13.5t64.5 -30t63.5 -29.5t72 -13q61 0 105 24.5t79 50.5l104 -161q-41 -45 -107.5 -85t-146.5 -40q-41 0 -73.5 13t-63.5 29.5t-63.5 30t-71.5 13.5q-61 0 -105 -23.5t-79 -50.5z"/>
<glyph unicode=" " horiz-adv-x="915"/>
<glyph unicode=" " horiz-adv-x="1831"/>
<glyph unicode=" " horiz-adv-x="915"/>
<glyph unicode=" " horiz-adv-x="1831"/>
<glyph unicode=" " horiz-adv-x="610"/>
<glyph unicode=" " horiz-adv-x="457"/>
<glyph unicode=" " horiz-adv-x="305"/>
<glyph unicode=" " horiz-adv-x="305"/>
<glyph unicode=" " horiz-adv-x="228"/>
<glyph unicode=" " horiz-adv-x="366"/>
<glyph unicode=" " horiz-adv-x="101"/>
<glyph unicode="‐" horiz-adv-x="911" d="M131 432v281h649v-281h-649z"/>
<glyph unicode="‑" horiz-adv-x="911" d="M131 432v281h649v-281h-649z"/>
<glyph unicode="‒" horiz-adv-x="911" d="M131 432v281h649v-281h-649z"/>
<glyph unicode="–" horiz-adv-x="1024" d="M0 432v281h1024v-281h-1024z"/>
<glyph unicode="—" horiz-adv-x="2048" d="M0 432v281h2048v-281h-2048z"/>
<glyph unicode="‘" horiz-adv-x="575" d="M90 895l148 469h219l-49 -469h-318z"/>
<glyph unicode="’" horiz-adv-x="575" d="M117 895l49 469h319l-149 -469h-219z"/>
<glyph unicode="‚" horiz-adv-x="575" d="M117 -156l49 469h319l-149 -469h-219z"/>
<glyph unicode="“" horiz-adv-x="999" d="M90 895l148 469h219l-49 -469h-318zM512 895l148 469h219l-49 -469h-318z"/>
<glyph unicode="”" horiz-adv-x="999" d="M117 895l49 469h319l-149 -469h-219zM539 895l49 469h319l-149 -469h-219z"/>
<glyph unicode="„" horiz-adv-x="997" d="M117 -156l49 469h319l-149 -469h-219zM539 -156l49 469h319l-149 -469h-219z"/>
<glyph unicode="•" horiz-adv-x="899" d="M156 690q0 61 22.5 114.5t62.5 93.5t93 62.5t115 22.5q61 0 114 -22.5t93 -62.5t63.5 -93t23.5 -115q0 -61 -23.5 -114.5t-63.5 -93.5t-93 -62.5t-114 -22.5t-114.5 22.5t-93.5 62.5t-62.5 93.5t-22.5 114.5z"/>
<glyph unicode="…" horiz-adv-x="1751" d="M125 0v326h334v-326h-334zM709 0v326h334v-326h-334zM1292 0v326h334v-326h-334z"/>
<glyph unicode=" " horiz-adv-x="366"/>
<glyph unicode="‹" horiz-adv-x="729" d="M109 494l213 403h290l-209 -403l209 -404h-290z"/>
<glyph unicode="›" horiz-adv-x="729" d="M117 90l209 404l-209 403h291l213 -403l-213 -404h-291z"/>
<glyph unicode=" " horiz-adv-x="457"/>
<glyph unicode="€" d="M25 414l57 164h117q-2 18 -2 36.5v36.5v64h-158l55 166h127q25 96 69 178t110.5 141.5t153.5 93t196 33.5q117 0 210 -40t162 -116l-153 -196q-82 88 -207 88q-92 0 -148.5 -51t-85.5 -131h344l-55 -166h-319q-2 -16 -2 -31.5v-32.5v-36.5t2 -36.5h352l-57 -164h-261 q29 -78 84.5 -127t145.5 -49q68 0 118 21.5t91 64.5l151 -195q-70 -76 -163 -116t-209 -40q-109 0 -195 33t-151.5 92.5t-109.5 139t-69 176.5h-200z"/>
<glyph unicode="™" horiz-adv-x="1798" d="M61 1176v190h732v-190h-254v-594h-224v594h-254zM856 582l31 784h192l203 -330l203 330h198l31 -784h-207l-16 460l-160 -270h-100l-160 260l-14 -450h-201z"/>
<glyph unicode="◼" horiz-adv-x="962" d="M0 0v963h963v-963h-963z"/>
</font>
</defs>
</svg>
